<?xml version="1.0" standalone="no"?>
<!DOCTYPE svg PUBLIC "-//W3C//DTD SVG 1.1//EN" "http://www.w3.org/Graphics/SVG/1.1/DTD/svg11.dtd" >
<svg xmlns="http://www.w3.org/2000/svg">
<metadata></metadata>
<defs>
<font id="teamworkRegular" horiz-adv-x="2367" >
<font-face units-per-em="2048" ascent="1638" descent="-410" />
<missing-glyph horiz-adv-x="500" />
<glyph horiz-adv-x="0" />
<glyph horiz-adv-x="2048" />
<glyph unicode="!" d="M44 572.5q0 174.5 69 346.5t202 304q133 133 305 202t346.5 69t346.5 -69t305 -202q133 -132 202 -304t69 -346.5t-69 -346.5t-202 -304q-133 -133 -305 -202t-346.5 -69t-346.5 69t-305 202q-133 132 -202 304t-69 346.5zM805 1190l35 -905h254l34 905h-323zM840 -96 h254v254h-254v-254z" />
<glyph unicode="&#x22;" d="M57 120.5q-1 52.5 4.5 151t20.5 121.5q6 9 16.5 28t17.5 28.5t21.5 24.5t38 27.5t57.5 26.5l150 68v113q-5 4 -13 12.5t-24 46t-22 86.5q-20 -7 -38 17t-18 42q-6 32 3 65t34 28q-17 87 -10 120q5 79 69.5 137t167.5 58q98 0 164 -58t72 -137q0 -49 -8 -120 q14 4 23.5 -13.5t12.5 -38.5t3 -41q-5 -14 -13 -27t-22.5 -25t-28.5 -7q-5 -49 -19 -85.5t-25 -48.5l-11 -11l98 -74q-9 -5 -156 -55.5t-167 -79.5q-1 -4 -12.5 -15.5t-23.5 -35.5t-24 -68t-18 -134t-2 -214h-316q-1 35 -2 87.5zM536.5 -45q-0.5 26 0 94.5t2.5 123t8 106.5 t16 67q24 43 84 74t180 76l162 77l4 164q-6 4 -15.5 13.5t-27.5 49.5t-22 93q-23 -6 -43 21t-23 57q0 14 1.5 28t5.5 31.5t13 26.5t23 6q-17 112 -12 143q10 82 82.5 144.5t185.5 62.5q107 0 178.5 -63t79.5 -144q6 -37 -10 -143q14 3 23 -6t12.5 -27t4.5 -31t1 -28 q0 -28 -20.5 -56t-43.5 -22q-6 -53 -22 -92t-28 -51l-13 -13v-164q33 -18 160 -77q118 -43 180 -75t90 -75q15 -24 20.5 -132t4.5 -204l-2 -96h-1239q0 15 -0.5 41zM1477 727q30 6 44 75t18 157.5t7 101.5q18 85 41 133q26 55 84.5 91t134.5 36q96 0 162 -53q15 -6 27.5 -15 t22.5 -21t18.5 -23.5t15 -27.5t11 -27t9 -28t6.5 -24.5t5.5 -23t3.5 -17.5q3 -12 7.5 -101t19 -158t45.5 -75q-8 -22 -26 -26t-32 8q0 -27 -28.5 -31.5t-36.5 20.5q1 -10 -5.5 -15t-16.5 -4.5t-21 3.5t-21 8q0 -34 -4 -100q7 -2 23 -10t47 -22.5t65 -29.5q34 -14 57.5 -26.5 t38.5 -27.5t22 -24.5t17.5 -28.5t16.5 -28q16 -23 22 -113t4 -168l-2 -79h-317q5 107 0 185.5t-11.5 125.5t-19 77.5t-21.5 43t-18.5 22t-11.5 13.5q-15 22 -81 48.5t-143.5 51.5t-96.5 35l59 43q-21 0 -21 20q-5 -16 -21 -20.5t-30 4.5t-14 27q-15 -12 -31.5 -8t-23.5 26z " />
<glyph unicode="#" d="M41 -76v1694h1522v-258h-174v86h-1199v-1096h84v-426h-233zM362 -399v1671h1522v-1671h-1522zM530 6h1180v1116h-1180v-1116zM694 553v117h813v-117h-813zM694 799v125h813v-125h-813z" />
<glyph unicode="$" d="M70.5 439.5q-62.5 236.5 0 473t238.5 412.5q132 133 304 202t346.5 69t346.5 -69t304 -202q176 -176 238.5 -412.5t0 -473t-238.5 -412.5t-413 -238.5t-474.5 0t-413.5 238.5t-238.5 412.5zM600 240q48 -25 121.5 -44t148.5 -22v-151h158v165q134 23 208.5 103.5 t74.5 191.5q0 109 -62.5 178.5t-204.5 118.5q-106 40 -151 69.5t-45 65.5q0 38 33 66t104 29q24 0 47 -2t44 -6t36.5 -8t34 -10.5t27 -9.5t25 -10t18.5 -8l49 181q-106 47 -238 49v141h-158l4 -153q-127 -24 -198.5 -101t-71.5 -184q1 -110 76 -178t215 -113 q93 -32 132.5 -62.5t39.5 -74.5q0 -47 -42.5 -74t-113.5 -29q-130 0 -266 70z" />
<glyph unicode="%" d="M41 -12l1370 1372l301 -297l-1370 -1372zM719 1466l100 103l199 -201l-98 -100zM1112 858l100 -96l301 301l-102 96zM1264 1481v282h143v-282h-143zM1622 567l98 99l199 -199l-98 -98zM1720 1466l199 203l98 -100l-196 -201zM1843 967v141h283v-141h-283z" />
<glyph unicode="&#x26;" d="M41 1120.5q-3 65.5 6.5 121t24.5 87.5t32 51l437 -436q-25 -21 -30.5 -48t8 -58.5t32.5 -59t49 -61.5q151 -180 307 -307q45 -36 70 -55t57.5 -41.5t51 -30.5t40.5 -13t37.5 0.5t30.5 20.5l426 -416q-19 -19 -53 -35.5t-92 -26.5t-128 -6t-164 33.5t-195.5 83.5 t-228.5 153.5t-257 233.5q-124 126 -215.5 248t-140.5 219t-75.5 187t-29.5 155.5zM164 1440l436 -436l119 118q21 25 19 54.5t-19 46.5l-346 336q-15 23 -45 23t-45 -23zM1253 350l426 -416l119 119q21 17 19 45t-19 45l-336 336q-15 15 -45 15t-45 -15z" />
<glyph unicode="'" d="M365 96l745 533v-402h139q171 0 292.5 121.5t121.5 292.5t-122 293t-292 121l-796 -8v262l796 8q134 1 257 -50.5t220 -148.5q96 -96 147.5 -219t51.5 -258t-52 -259t-147 -218q-97 -97 -219.5 -148t-257.5 -51h-139v-401z" />
<glyph unicode="(" d="M451 729q0 133 52 254t140 209t209 140t254 52t254.5 -52t209 -140t139.5 -209t52 -254q0 -172 -84 -321l287 -287q44 -44 44 -107.5t-44 -107.5q-43 -43 -106 -43q-64 0 -107 43l-278 278q-163 -110 -367 -110q-133 0 -254 52t-209 139.5t-140 209t-52 254.5zM653 729 q0 -188 133 -321.5t320 -133.5q92 0 176.5 36t145.5 97t97 145.5t36 176.5q0 187 -133.5 320t-321.5 133t-320.5 -133t-132.5 -320zM803 627v200h201v201h200v-201h203v-200h-203v-203h-200v203h-201z" />
<glyph unicode=")" d="M451 729q0 133 52 254t140 209t209 140t254 52t254.5 -52t209 -140t139.5 -209t52 -254q0 -172 -84 -321l287 -287q44 -44 44 -107.5t-44 -107.5q-43 -43 -106 -43q-64 0 -107 43l-278 278q-163 -110 -367 -110q-133 0 -254 52t-209 139.5t-140 209t-52 254.5zM653 729 q0 -188 133 -321.5t320 -133.5q92 0 176.5 36t145.5 97t97 145.5t36 176.5q0 187 -133.5 320t-321.5 133t-320.5 -133t-132.5 -320zM803 627v200h604v-200h-604z" />
<glyph unicode="*" d="M41 881l612 -453l-229 -727l608 446l610 -446l-231 727l614 453h-749l-244 714l-244 -714h-747z" />
<glyph unicode="+" d="M70.5 368q-62.5 236 0 471.5t238.5 411.5q133 133 304.5 202.5t345.5 69.5t345.5 -69.5t303.5 -202.5q133 -132 202.5 -303t69.5 -344.5t-69.5 -344.5t-202.5 -304q-132 -133 -303.5 -202t-345.5 -69t-345.5 69t-304.5 202q-176 177 -238.5 413zM383 496h459v-459h235 v459h459v235h-459v459h-235v-459h-459v-235z" />
<glyph unicode="," d="M41 778v639h639l1106 -1083l-658 -658zM252 1032q0 -65 57 -117.5t133 -52.5q65 0 117.5 53t52.5 117q0 78 -51.5 135.5t-118.5 57.5q-78 0 -134 -57t-56 -136z" />
<glyph unicode="-" d="M70.5 368q-62.5 236 0 471.5t238.5 411.5q133 133 304.5 202.5t345.5 69.5t345.5 -69.5t303.5 -202.5q133 -132 202 -303t69 -344.5t-69 -344.5t-202 -304q-132 -133 -303.5 -202t-345.5 -69t-345.5 69t-304.5 202q-176 177 -238.5 413zM383 496h1153v235h-1153v-235z " />
<glyph unicode="." d="M371 381v446h864v381l762 -608l-762 -600v381h-864z" />
<glyph unicode="/" d="M41 -211v1643h2140v-1643h-2140zM182 -86h1862v1395h-1862v-1395zM281 387l284 414l269 -357l200 398l199 401l391 -416l141 285l177 -90l-279 -561l-395 420l-78 -170l-334 -666l-291 408l-141 -209z" />
<glyph unicode="0" d="M139 674q0 193 73.5 367t199 299t300 198.5t369.5 73.5q194 0 368 -73.5t299 -198.5t198 -299t73 -367q0 -194 -73 -368t-198 -299.5t-299 -199t-368 -73.5q-195 0 -369.5 73.5t-300 199t-199 299.5t-73.5 368zM346 674q0 -203 97 -377.5t266.5 -277.5t371.5 -103 q151 0 290.5 61t241 163t162 242t60.5 292q0 203 -102.5 377t-276 275t-375.5 101t-371.5 -101.5t-266.5 -274.5t-97 -377zM512 420q0 47 20 72q23 0 43.5 -5t30.5 -10t32 -18.5t32 -18.5q87 128 110 197t23 219q-17 -9 -26 -32.5t-21 -40.5t-41 -17q-33 0 -52 16.5 t-24 50.5t-4.5 65t4.5 83t4 82q48 0 73.5 -0.5t70 -5.5t72.5 -14t59 -28t51 -46q22 -23 38 -74t27 -61q38 -22 86 -18t105.5 11t108 12.5t94 -11.5t63.5 -62q0 -19 -17.5 -25.5t-35 -8.5t-17.5 -9q-18 -58 4.5 -124.5t90.5 -131.5q15 0 56 19t77 6q17 -38 5 -55t-46 -17h20 q-302 -113 -547 -113q-306 0 -569 113zM803 395q125 -32 287 -32t266 32q-11 61 -53.5 103.5t-99 60.5t-122.5 16.5t-123 -22t-100 -62t-55 -96.5z" />
<glyph unicode="1" d="M39 683q0 176 71 349.5t207 306.5q134 134 305.5 204.5t352.5 70.5t351.5 -70.5t303.5 -204.5q133 -133 202.5 -306.5t69.5 -349.5t-69.5 -349t-202.5 -305q-132 -135 -302.5 -205t-352.5 -70t-353 70t-305 205q-136 132 -207 305t-71 349zM121 682q0 -171 63 -320 q65 -157 189 -278q122 -122 282 -190q154 -62 320 -62q168 0 319 62q160 69 281 190q119 116 186 278q64 159 64 320q0 170 -64 322q-63 160 -186 280q-122 122 -281 191q-149 61 -319 61q-171 0 -320 -63q-156 -63 -282 -189q-126 -123 -191 -280q-61 -152 -61 -322z M289 891l422 -309l-156 -498l420 303l416 -303l-156 498l422 309h-516l-166 493l-172 -493h-514z" />
<glyph unicode="2" d="M41 698q0 186 72.5 356t195 293t292 196t355.5 73t356 -73t292.5 -196t195 -293t72.5 -356t-72.5 -355.5t-195 -292t-292.5 -195t-356 -72.5t-355.5 72.5t-292 195t-195 292t-72.5 355.5zM137 698q0 -166 65 -317.5t175 -261t261.5 -174t317.5 -64.5q134 0 259 41.5 t226 117t176.5 176t117 225t41.5 257.5q0 167 -65 319t-174.5 261.5t-261.5 174.5t-319 65q-166 0 -317.5 -65t-261.5 -174.5t-175 -261.5t-65 -319zM575 551v502q0 53 37 90t90 37q52 0 89 -37q36 -36 36 -90v-125h373q51 0 88 -37t37 -88q0 -53 -37 -90t-88 -37h-373v-123 q0 -53 37 -90q38 -35 88 -35h248q51 0 88 -37t37 -90q0 -51 -37 -88t-88 -37h-248q-155 0 -266 111t-111 264z" />
<glyph unicode="3" d="M41 1098q0 138 67.5 255t184 185t254.5 68q143 0 270 -78q70 12 150 12q177 0 338.5 -69t278.5 -186t186 -278.5t69 -338.5q0 -91 -20 -189q53 -109 53 -225q0 -209 -148.5 -357.5t-357.5 -148.5q-128 0 -240 59q-93 -14 -159 -14q-178 0 -340 69.5t-279 186.5 t-186.5 279t-69.5 340q0 87 19 174q-70 118 -70 256zM451 418q0 -79 55 -158q56 -80 145 -127q118 -65 312 -65q163 0 274 47q115 50 176 135q62 86 62 194q0 92 -35 154q-36 60 -99 104q-61 40 -149 68q-82 26 -195 51q-24 5 -47.5 11t-44.5 11t-28 7q-20 5 -70 27 q-33 17 -51 41q-19 22 -19 51q0 47 56 82q53 39 149 39q101 0 148 -35q41 -32 77 -97q25 -45 52 -69q26 -23 75 -23q53 0 90 37q35 38 35 84q0 49 -26 100q-28 51 -84 95q-58 46 -146 71q-85 27 -202 27q-152 0 -256 -39q-110 -40 -170 -119q-60 -78 -60 -176 q0 -107 55 -174q58 -70 152 -110q93 -41 227 -68q74 -15 162 -41q61 -20 92 -51q35 -30 35 -82q0 -64 -65 -111q-70 -45 -177 -45q-73 0 -127 23q-44 20 -73 57q-26 37 -49 88q-20 47 -52 76q-34 27 -77 27q-53 0 -91 -35q-36 -33 -36 -82z" />
<glyph unicode="4" d="M41 664q0 186 72.5 355.5t195 292t292 195t355.5 72.5t356 -72.5t292.5 -195t195 -292t72.5 -355.5t-72.5 -356t-195 -292.5t-292.5 -195t-356 -72.5t-355.5 72.5t-292 195t-195 292.5t-72.5 356zM139 664q0 -166 64.5 -317.5t174 -261t261 -174.5t317.5 -65t317.5 65 t261 174.5t174.5 261t65 317.5t-65 317.5t-174.5 261t-261 174t-317.5 64.5q-111 0 -217 -29.5t-195.5 -82t-165 -128t-128 -165t-82 -195.5t-29.5 -217zM709 639v186h112v111q0 120 56 181t186 61h147v-187h-92q-49 0 -61.5 -15.5t-12.5 -57.5v-93h168l-20 -186h-148v-541 h-223v541h-112z" />
<glyph unicode="5" d="M41 -147q16 14 38 34t62 57.5t76 76t76.5 84t67.5 87.5t44.5 80t12.5 68.5t-33 46.5q-98 55 -163.5 131.5t-88.5 153.5q-13 37 -10 75t16.5 69.5t46.5 53t80 25.5q83 6 142 -16t88 -59t46 -75t30 -72t26 -42q44 -27 113 24.5t96 102.5q35 64 74 198q24 74 45 127.5 t58 126t91 139.5t123 126q94 83 201.5 118t175.5 0q48 -25 57.5 -68t-9.5 -85t-55.5 -89.5t-66.5 -77.5t-57 -52q-142 -127 -195 -186q-129 -147 -45 -193q21 -10 99.5 85t169 216t118.5 147q100 93 210 84q88 -7 131 -73q51 -79 -3 -186q-52 -102 -192 -197 q-10 -8 -41 -27.5t-55.5 -37t-51 -40t-39.5 -46.5t-8 -46q2 -13 8.5 -21.5t16 -11.5t19 -4t23 2t22.5 5.5t23 7.5t19 6q17 4 50 14t49 14q162 39 273 -36q80 -53 92 -134q14 -85 -58 -141q-112 -87 -362 -40q-59 11 -124 30q-37 9 -52.5 8.5t-24.5 -10.5q-9 -18 2.5 -37.5 t35.5 -20.5q158 -9 241 -99q61 -66 46 -136q-15 -69 -95 -95q-134 -43 -370 58q-71 30 -127 39t-99 1.5t-83 -37t-71 -66.5t-72 -97q-46 -65 -158 -248l-90 58q20 31 53 86.5t53 88.5t53.5 82t58 78t62 64.5t71 53t78.5 32.5t91 14.5t102.5 -12.5t118.5 -39q224 -96 297 -69 q36 14 13 51q-27 45 -101 70q-38 13 -78 16q-76 5 -117 75q-37 64 -17 127q23 71 108 77q45 4 102 -13q219 -64 343 -16q64 24 72 67q7 41 -44 65q-71 33 -199 3q-17 -4 -53 -15.5t-62 -18.5t-61.5 -13.5t-61.5 -3t-51.5 14t-43 37.5t-25.5 68q-10 52 11.5 99.5t66 86.5 t91.5 71.5t100.5 69t80.5 63.5q34 35 49.5 68.5t12 57t-20 38t-42 16.5t-59 -13t-65.5 -45q-39 -36 -127 -153t-170 -212.5t-131 -109.5q-42 -12 -80 7.5t-57 55.5t-27 79t10 79q17 45 72 110.5t118.5 127.5t124 121t97.5 107.5t31 72.5q-26 15 -101.5 -8.5t-156.5 -93.5 q-91 -79 -150 -170t-82 -163t-58 -175t-75 -178q-21 -40 -60 -80t-87.5 -67.5t-97 -39t-94 7.5t-73.5 70q-14 26 -29 63.5t-25 56.5t-28.5 39.5t-50.5 27.5t-82 4q-64 -7 -41 -91q12 -42 42 -80t63.5 -65t70.5 -56.5t63.5 -59t43.5 -66.5t8.5 -85t-41 -109t-104 -144 t-180.5 -185l-90 -79z" />
<glyph unicode="6" d="M0 639q0 194 75.5 370.5t202.5 304.5t303 203.5t369 75.5q194 0 370.5 -75.5t304.5 -203.5t204 -304.5t76 -370.5q0 -193 -76 -369t-204 -303t-304.5 -202.5t-370.5 -75.5q-193 0 -369 75.5t-303 202.5t-202.5 303t-75.5 369zM100 639q0 -172 67.5 -329.5t181.5 -272 t271.5 -182.5t329.5 -68q69 0 158 14l63 133l37 123l-98 66l-10 72l-13 73l46 68l-15 22l-76 66l-18 47l-80 8l-141 80l-152 264v164l-59 129l-107 70l-129 -111l-18 88l29 49l-27 21q-113 -118 -176.5 -271.5t-63.5 -322.5zM516 1370l94 -51l90 55l142 -47l307 -14l6 -74 l-102 -20l-43 -54l145 -141l43 27l-4 133l47 8l84 -96h51l78 -209l-76 -27l-123 -72l-63 -65q-6 -90 2 -98q8 -7 -4.5 -19t-20.5 -12q-4 0 -15.5 8.5t-20.5 17.5l-9 9q-11 7 -27.5 17t-54.5 24.5t-59 9.5q-24 -6 -38 -35t-12.5 -54t11.5 -36q11 -7 34 1t40 20l18 12l51 -51 l-22 -39l68 -4l26 -70l70 43l28 -23l115 -14l70 -53l22 -96h62l14 -33l-47 -146l-76 -53l-20 -90l-117 -102l-2 -4q235 100 380.5 313.5t145.5 472.5q0 173 -67.5 331t-182 272t-272.5 181.5t-332 67.5q-237 0 -434 -121z" />
<glyph unicode="7" d="M0 664q0 186 72.5 356t195 293t292 195.5t355.5 72.5q149 0 289 -46.5t252.5 -131t197.5 -197.5t131 -253t46 -289q0 -186 -72.5 -356t-195 -293t-292.5 -196t-356 -73t-355.5 73t-292 196t-195 293t-72.5 356zM96 664q0 -166 65 -318t175 -262t261.5 -175t317.5 -65 q134 0 259 41.5t226 117.5t176.5 177t117 226t41.5 258q0 167 -65 318.5t-174.5 261t-261.5 174.5t-319 65q-166 0 -317.5 -65t-261.5 -174.5t-175 -261t-65 -318.5zM332 502v35h84v-31q0 -92 63 -92q30 0 47 24q17 20 17 49q0 27 -11 56q-11 25 -26 43q-13 16 -49 47 l-62 53q-63 54 -63 121q0 76 35 108q38 35 102 35h25q12 0 45 -8q24 -6 45 -24q13 -11 28 -48q9 -36 9 -55h-89v10q0 24 -18 39q-16 19 -39 19q-26 0 -43 -17q-20 -17 -20 -45q0 -43 51 -82l88 -71q12 -10 33 -31q15 -19 20 -31l14 -28q5 -15 7 -23q2 -14 2 -23v-20 q0 -41 -4 -59q-3 -23 -15 -47q-7 -21 -22 -33q-13 -13 -39 -23q-21 -8 -60 -8q-86 0 -120 37q-35 35 -35 123zM741 944h88l50 -405h34l52 405h86l-82 -594h-146zM1188 350v594h96l96 -289l23 -86v375h82v-594h-90l-101 303l-22 86v-389h-84z" />
<glyph unicode="8" d="M41 469l186 987q11 41 43 55l117 78q27 12 43.5 -1.5t32.5 -47.5q23 -48 -47 -88l-13 -7l-41 -30q-1 -2 -11 -9t-17.5 -19t-11.5 -31q-37 -137 -109 -740h98q66 85 164 135t209 50q112 0 210.5 -50t164.5 -135h352q66 85 164 135t211 50q111 0 209 -50t164 -135h96 q-2 20 -11.5 97t-14.5 118t-14 116t-16 124.5t-16 108.5t-17 102.5t-16 73.5q-5 19 -13.5 31t-18 19t-11.5 9q-54 43 -53 37q-71 38 -47 88q16 33 33.5 47t42.5 2l117 -78q32 -14 43 -55l184 -987q6 -38 -21 -68l-75 -75q-21 -21 -54 -21h-18q-9 -189 -146.5 -319.5 t-326.5 -130.5q-196 0 -334.5 138t-138.5 333h-156q0 -128 -63.5 -236.5t-172.5 -171.5t-237 -63q-190 0 -327 130.5t-146 319.5h-18q-29 0 -56 21l-76 75q-23 29 -20 68zM369 326q0 -132 92 -224q95 -92 223 -92q127 0 225 92q92 92 92 224q0 130 -92 225q-97 94 -225 94 q-129 0 -223 -94q-92 -95 -92 -225zM1468 326q0 -131 93 -224q95 -92 225 -92q128 0 223 92q92 92 92 224q0 130 -92 225q-94 94 -223 94q-131 0 -225 -94q-93 -96 -93 -225z" />
<glyph unicode="9" d="M41 555v221q0 14 20.5 24.5t49.5 10.5q63 76 159 76h670q28 0 61 -22t51 -41.5t46 -53.5h248q20 26 32 39.5t34.5 35t45 32t45.5 10.5h670q95 0 158 -76q29 0 49 -10.5t20 -24.5v-221q0 -22 -41 -35l-45 -317q-3 -84 -64 -142.5t-145 -58.5h-536q-84 0 -144 58.5 t-63 142.5l-35 241q0 31 -31 52.5t-75 21.5q-43 0 -75 -22t-32 -52l-35 -241q-2 -83 -62 -142t-145 -59h-536q-84 0 -144 58.5t-63 142.5l-47 317q-41 14 -41 35zM250 657l57 -411q2 -4 2 -10q0 -22 15.5 -38t37.5 -16h484q22 0 37.5 16t15.5 38q0 6 2 10l27 200l30 211 q-2 22 -17 37t-36 15h-600q-23 0 -38 -15t-17 -37zM1487 657l31 -211l28 -200q2 -4 2 -8q0 -23 15.5 -38.5t38.5 -15.5h479q23 0 38 15.5t15 38.5q0 4 2 8l59 411q-2 22 -17.5 38t-35.5 16h-600q-22 0 -37.5 -16t-17.5 -38z" />
<glyph unicode=":" d="M350 608l762 600v-381h864v-446h-864v-381z" />
<glyph unicode=";" d="M70 -68v1387q0 95 69 164t166 69h1337q43 0 76 -16l-180 -180h-1233q-15 0 -26 -11t-11 -26v-1387q0 -12 11 -22t26 -10h1378q19 0 30 9.5t11 22.5v652l197 196v-848q0 -94 -69.5 -162.5t-168.5 -68.5h-1378q-96 0 -165.5 68.5t-69.5 162.5zM420 563l246 244l272 -279 l1004 1004l245 -244l-1249 -1241z" />
<glyph unicode="&#x3c;" horiz-adv-x="1228" />
<glyph unicode="=" d="M41 0v246h1655v-246h-1655zM41 410v245h1655v-245h-1655zM41 819v246h1655v-246h-1655zM41 1229v246h1655v-246h-1655z" />
<glyph unicode="?" d="M40 572.5q0 175.5 69 348.5t202 306q177 176 415.5 238.5t477 0t414.5 -238.5q133 -133 202 -306t69 -348.5t-69 -348.5t-202 -306q-132 -133 -304.5 -202t-348 -69t-348.5 69t-306 202t-202 306t-69 348.5zM514 862h229q-2 10 7 37q25 91 77 137q66 60 156 60 q101 0 156 -58q57 -51 57 -131q0 -58 -33 -102q-29 -37 -127 -123q-108 -91 -145 -170q-35 -75 -35 -190v-3h225q3 58 17 93q18 40 94 110q153 135 199 211q45 82 45 166q0 161 -125 277q-126 120 -338 120q-200 0 -324 -118q-124 -120 -135 -279v-37zM856 -43h229v217h-229 v-217z" />
<glyph unicode="@" d="M41 621q0 189 73.5 361t198.5 297t297.5 199t362.5 74q189 0 361 -74t296.5 -199t198.5 -297t74 -361t-74 -361.5t-198.5 -297t-296.5 -198t-361 -73.5q-190 0 -362.5 73.5t-297.5 198t-198.5 297t-73.5 361.5zM205 621q0 -209 102.5 -385t279 -278.5t386.5 -102.5 q208 0 384 102.5t279 279t103 384.5q0 156 -61 298.5t-163.5 245t-244.5 163.5t-297 61q-209 0 -386 -103t-279.5 -279.5t-102.5 -385.5zM571 854v33q9 139 117 241q106 103 283 103q189 0 291 -105q108 -99 108 -239q0 -85 -39 -146q-40 -72 -170 -182q-69 -66 -84 -100 q-11 -19 -14 -78h-195v2q0 106 29 168q37 69 127 145q98 86 111 109q28 42 28 88q0 67 -49 113q-48 51 -135 51q-84 0 -135 -51q-50 -47 -70 -119q-6 -28 -4 -33h-199zM868 66v188h199v-188h-199z" />
<glyph unicode="A" d="M41 606q0 202 78 385t210 316t315.5 211.5t385.5 78.5t385.5 -78.5t316.5 -211t212 -316.5t79 -385q0 -202 -79 -386t-212 -316t-316.5 -210.5t-385.5 -78.5t-385.5 78t-315.5 211t-210 316.5t-78 385.5zM279 606q0 -153 59 -292t159 -240t239.5 -161t293.5 -60 q153 0 292.5 60t240 161t160 240t59.5 292t-59.5 292.5t-160 240t-240 160t-292.5 59.5q-154 0 -293 -59.5t-239.5 -160t-159.5 -240t-59 -292.5zM928 578v460q0 38 27 65t65 27h18q41 0 66.5 -26.5t25.5 -65.5v-393l283 -135q36 -12 49 -50q6 -17 6 -35q0 -19 -8 -38 l-10 -18q-11 -24 -34.5 -40t-49.5 -16q-21 0 -39 11l-348 168q-25 10 -39 34q-12 21 -12 45v7z" />
<glyph unicode="B" d="M41 45v105h1677v-105h-313q12 -30 19 -48.5t22 -60t23 -71t18.5 -69t11.5 -67t-1.5 -53t-15.5 -38.5t-36 -13q-84 0 -250 420h-631q-166 -420 -252 -420q-37 1 -49 33q-8 20 -7 47q0 17 3 39q8 54 21 106.5t31 112t22 82.5h-293zM41 276v945h1677v-945h-1677zM586 1325 l41 229q0 24 3 38t10.5 20t13 7t16.5 1h20q11 0 16.5 -1t13 -7t10.5 -20t3 -38v-229h-147zM1004 1325v229q0 29 11 45.5t21 18.5l11 2h45h1q1 0 3.5 -0.5t5 -1.5t6 -3.5t6.5 -5.5t6 -8.5t5 -11.5t3.5 -15t1.5 -20l41 -229h-167z" />
<glyph unicode="C" d="M41 -215v1315h1837v-1315q0 -44 -24 -65t-60 -21h-1669q-36 0 -60 21t-24 65zM41 1202v168q0 31 26 58.5t58 27.5h311v230h170v-230h707v230h170v-230h311q32 0 58 -27.5t26 -58.5v-168h-1837zM207 -154h315v320h-315v-320zM207 229h315v338h-315v-338zM207 631h315v301 h-315v-301zM606 -154h312v320h-312v-320zM606 229h312v338h-312v-338zM606 631h312v301h-312v-301zM1001 -154h312v320h-312v-320zM1001 229h312v338h-312v-338zM1001 631h312v301h-312v-301zM1399 -154h315v320h-315v-320zM1399 229h315v338h-315v-338zM1399 631h315v301 h-315v-301z" />
<glyph unicode="D" d="M41 600q0 207 79.5 395.5t214 325.5t320 218t389.5 81q213 0 404 -81t328 -218t217 -325.5t80 -395.5t-80 -394t-217 -322.5t-328 -215.5t-404 -80q-204 0 -389.5 80t-320 215t-214 322.5t-79.5 394.5zM262 600q0 -251 154 -477l1108 1112q-244 180 -480 180 q-156 0 -300.5 -67t-250 -177.5t-168.5 -260.5t-63 -310zM594 -35q224 -176 450 -176q166 0 316 67t256 178t168.5 259.5t62.5 306.5q0 255 -149 481z" />
<glyph unicode="E" d="M385 -119h1638v1641h-1638v-1641zM500 -2v1407h1407v-1407h-1407zM735 584v235h350v350h236v-350h350v-235h-350v-351h-236v351h-350z" />
<glyph unicode="F" d="M23 -131v530v432v392l1536 379l-13 -392l582 140q-160 -1061 -162 -1088q-8 -50 -29.5 -86t-58.5 -59.5t-74 -37.5t-94 -28l-1472 -375q-4 -1 -12 -2.5t-30 -3.5h-15q-14 0 -28 2q-20 3 -45 15.5t-43 33t-30 59t-12 89.5zM141 -115q0 -29 21 -49t51 -20h10q29 0 48 19.5 t22 49.5l162 1047l962 242l6 272l-1280 -313q0 -33 -1 -133.5t-1 -141.5v-973z" />
<glyph unicode="G" d="M41 -203v426h1704v-426h-1704zM41 471v424h1802v-424h-1802zM43 1141v424h776v-424h-776z" />
<glyph unicode="H" d="M41 -29h117q12 257 105.5 421t258.5 218v195q-167 56 -260.5 222.5t-103.5 428.5h-117v182h1337v-182h-96q-10 -262 -104 -428.5t-260 -222.5v-195q164 -54 257 -218t105 -421h98v-182h-1337v182zM250 -29h106l164 191l207 244l207 -244l164 -191h92q-4 76 -15 144 t-35.5 138t-60 124t-92 95.5t-127.5 59.5l-35 9v333l35 9q72 18 129 61t92.5 98t59.5 126.5t35 140.5t14 147h-940q3 -78 14 -147t35 -140.5t59.5 -126.5t91.5 -98t128 -61l34 -9v-333l-34 -9q-88 -22 -152 -78.5t-99.5 -137t-53.5 -164.5t-23 -181zM535 1135h380l-96 -113 l-94 -111l-96 111z" />
<glyph unicode="I" d="M41 -317v1878h1057l233 -236l234 -233v-496h-234v377h-352v352h-703v-1411h555l256 -231h-1046zM1038 33h195v348h405v-348h222l-412 -389z" />
<glyph unicode="J" d="M16 1162v22q0 31 16 38t38 -16l137 -131q23 -23 54 -23t54 23l138 137q22 23 22 54.5t-22 54.5l-131 131q-24 22 -19 40.5t35 18.5h23.5t57 -4.5t80 -13.5t82 -29t74.5 -49q75 -78 99 -184q9 -45 9 -88q0 -59 -18 -115l574 -573q54 18 111 18q45 0 92 -11 q106 -26 186 -104q47 -45 70.5 -123t23.5 -133v-55q0 -31 -15 -38t-38 16l-137 137q-23 22 -54.5 22t-54.5 -22l-137 -144q-22 -23 -22 -54t22 -54l131 -131q23 -23 19 -38t-35 -15q-3 2 -23 0q-5 -1 -12 -1q-18 0 -46 4q-38 5 -78 12.5t-84 28t-75 50.5q-75 75 -99 182 q-9 45 -9 89q0 60 18 118l-573 573q-56 -18 -115 -18q-43 0 -88 10q-106 23 -184 98q-31 30 -52 73t-29.5 83t-12.5 76q-3 29 -3 49v9zM70 -131l174 268l84 -12l321 330l84 -84l-327 -324l10 -84l-269 -172zM997 993l406 406q46 45 111 45t110 -45l35 -43q49 -45 49 -105 q0 -61 -49 -110l-404 -406l-55 56l393 393q23 24 0 47q-9 9 -23.5 9t-23.5 -9l-393 -393l-53 53l393 393q23 24 4 43q-8 8 -23 8.5t-24 -8.5l-393 -393z" />
<glyph unicode="K" d="M4 764l326 -447l325 447h-211q5 135 75 249t187.5 180.5t254.5 66.5q140 0 259 -69.5t188 -188.5t69 -259t-69 -259t-188 -188t-259 -69h-953v-229h953q152 0 290 59t237.5 158.5t158.5 237.5t59 290t-59 290t-158.5 238t-237.5 159t-290 59q-198 0 -368 -97t-271.5 -264 t-106.5 -364h-211zM1405 -2q147 89 254 229h256v209l446 -323l-446 -324v209h-510z" />
<glyph unicode="L" d="M66 562q-26 100 -26 200t26 200q52 200 200 351q112 107 254.5 164t292.5 57t293 -57t256 -164q129 -131 185 -303q39 -121 39 -245q0 -51 -6 -103q-24 -176 -122 -330l502 -502l-219 -219l-504 506q-191 -129 -424 -129q-152 0 -294 57t-253 168q-148 149 -200 349z M332 762q0 -201 139 -342q68 -68 157.5 -106t184.5 -38q195 0 342 144q68 69 105.5 159t37.5 183q0 95 -37.5 184.5t-105.5 157.5q-148 145 -342 145q-94 0 -184 -38.5t-158 -106.5q-139 -141 -139 -342z" />
<glyph unicode="M" d="M42 -53v35q0 76 6 172q8 118 28 145q9 15 23.5 28.5t38.5 27.5t43.5 24.5t56 25t57 22.5t64.5 24.5t63 23.5q68 30 114 52t58 29l12 7l6 146q-7 5 -17.5 16t-31 57t-26.5 107q-24 -7 -47.5 24t-28.5 64q0 22 3 44.5t14.5 44.5t31.5 17q-12 116 -12 151v11 q10 93 93.5 165.5t211.5 72.5q123 0 206 -73t91 -165q2 -12 2 -30q0 -47 -12 -132q15 3 25.5 -7.5t14.5 -31t5.5 -36t1.5 -31.5q0 -32 -24 -63.5t-50 -24.5q-8 -61 -26 -106t-32 -59l-14 -15v-146q38 -20 183 -88q16 -6 50.5 -18.5t51.5 -19t47 -18t46.5 -18.5t40.5 -18 t39 -20t31.5 -20t28 -22t19.5 -22q18 -27 24 -141q5 -88 4 -168v-48l-2 -100h-1511v19q0 27 -1 86zM1397 854q0 16 1.5 32.5t6 35t13.5 28.5t22 6q-10 105 -10 142q8 89 82.5 154t187.5 65q118 0 192 -64.5t80 -154.5q2 -12 2 -27q0 -42 -14 -115q20 5 31.5 -14t12.5 -44 t-1 -44q0 -23 -21 -51t-45 -21q-6 -55 -22.5 -96.5t-29.5 -55.5l-13 -14v-127q35 -18 170 -77q48 -19 80 -40.5t42 -33t28.5 -43t23.5 -39.5q16 -24 23 -128q5 -80 5 -154v-41l-1 -91h-504q3 104 3 192t-1 144.5t-6.5 106.5t-8 72.5t-10 48.5t-8.5 29t-8 18 q-17 23 -72.5 35.5t-120 21.5t-88.5 22l113 84q-6 5 -14.5 15.5t-26 53t-23.5 97.5q-23 -7 -44 20t-27 52z" />
<glyph unicode="N" d="M188 928l854 649v-354q76 -9 146 -20.5t161 -34.5t167 -52t152.5 -75t129.5 -102t86 -134.5t33 -169.5q0 -76 -17.5 -151t-45.5 -137t-70.5 -124.5t-84 -110.5t-96 -97t-97 -82.5t-95 -69.5t-82.5 -54t-67.5 -40t-42.5 -25q5 4 13 10.5t33 30t48.5 49t54.5 65.5 t55.5 81.5t47 96.5t34 110t11.5 122t-15 133q-5 26 -17.5 48.5t-28.5 39.5t-41.5 31.5t-47 24t-55 18.5t-56 13.5t-59 9.5t-55.5 7t-53.5 5t-45.5 4v-364z" />
<glyph unicode="O" d="M42 1168q14 146 118 247q102 105 248 119q22 2 43 2q120 0 221 -68l-566 -563q-66 99 -66 218q0 22 2 45zM209 516q0 145 56.5 277t152.5 228t228.5 153t277.5 57q193 0 357 -96t259.5 -261t95.5 -358q0 -144 -53 -272.5t-149 -227.5l180 -182q15 -13 15 -32.5t-15 -34.5 l-17 -17q-13 -12 -33 -12t-34 12l-187 187l-2 2q-188 -138 -417 -138q-214 0 -396 119l-170 -170q-14 -12 -34 -12t-33 12l-17 17q-14 15 -14 34t14 33l158 162q-105 99 -164 233.5t-59 286.5zM446 516q0 -129 64 -239t174 -174t240 -64q96 0 184 38t152 102t101.5 152 t37.5 185q0 196 -139.5 335.5t-335.5 139.5q-130 0 -240 -63.5t-174 -173t-64 -238.5zM852 541v297q0 24 16.5 40.5t40.5 16.5q25 0 42.5 -17t17.5 -40v-269l172 -137q19 -15 21 -40t-13 -44q-16 -22 -47 -22q-21 0 -35 14l-195 154q-20 18 -20 41v6zM1217 1468 q100 68 221 68q20 0 42 -2q146 -14 249 -119q103 -101 117 -247q2 -22 2 -44q0 -120 -66 -219z" />
<glyph unicode="P" d="M41 471v408h600v600h410v-600h596v-408h-596v-600h-410v600h-600z" />
<glyph unicode="Q" d="M385 -119h1638v1641h-1638v-1641zM500 -2v1407h1407v-1407h-1407zM735 584v235h936v-235h-936z" />
<glyph unicode="R" d="M496 -102v1314q0 57 37.5 98.5t91.5 41.5h26v260h123v-260h123v260h121v-260h123v260h123v-260h122v260h123v-260h123v260h121v-260h29q54 0 91.5 -41.5t37.5 -98.5v-1314q0 -60 -38 -107t-91 -47h-1157q-53 0 -91 47t-38 107zM668 90q0 -49 30 -49h498q11 0 21 15t10 34 q0 17 -10.5 35t-20.5 18h-498q-14 0 -22 -16.5t-8 -36.5zM668 397q0 -49 30 -49h1010q11 0 21 15t10 34q0 17 -10.5 35.5t-20.5 18.5h-1010q-14 0 -22 -17t-8 -37zM668 715q0 -49 30 -49h805q11 0 21 15t10 34t-10.5 38t-20.5 19h-805q-14 0 -22 -18t-8 -39zM668 1016 q0 -49 30 -49h1010q11 0 21 15t10 34t-10 36t-21 17h-1010q-14 0 -22 -16t-8 -37z" />
<glyph unicode="S" d="M41 37v1204l639 -545zM125 -49l647 667l236 -204q17 -17 34 -17q18 0 39 17l238 204l643 -667h-1837zM139 1317h1813l-910 -778zM1409 696l639 545v-1204z" />
<glyph unicode="T" d="M41 -170v678h338v338h565v112h-338v680h789v-680h-338v-112h452v-338h336v-678h-788v678h338v225h-903v-225h337v-678h-788zM152 281h565v114h-565v-114zM717 1409h563v115h-563v-115zM1165 281h566v114h-566v-114z" />
<glyph unicode="U" d="M41 -168v1456q0 35 26.5 60.5t61.5 25.5h958v221q0 36 25.5 61t63.5 25h4q36 0 61 -25t25 -61v-1763q0 -34 -25 -60t-61 -26h-1051q-35 0 -61.5 26t-26.5 60zM184 784q0 -46 33 -78t78 -32h704q46 0 79.5 31.5t33.5 78.5v295q0 47 -33.5 79t-79.5 32h-704q-45 0 -78 -32 t-33 -79v-295zM221 14q0 -46 33.5 -82t77.5 -36q45 0 78.5 36t33.5 82t-33 79.5t-79 33.5q-44 0 -77.5 -33.5t-33.5 -79.5zM221 358q0 -44 33 -76t78 -32q46 0 79 32t33 76q0 46 -33 79.5t-79 33.5q-44 0 -77.5 -33.5t-33.5 -79.5zM543 14q0 -46 33 -82t77 -36q45 0 78 36 t33 82t-32.5 79.5t-78.5 33.5q-44 0 -77 -33.5t-33 -79.5zM543 358q0 -44 33 -76t77 -32q46 0 78.5 32t32.5 76q0 46 -32.5 79.5t-78.5 33.5q-44 0 -77 -33.5t-33 -79.5zM866 14q0 -46 32.5 -82t76.5 -36q46 0 79 35.5t33 82.5q0 46 -32.5 79.5t-79.5 33.5 q-44 0 -76.5 -33.5t-32.5 -79.5zM866 358q0 -44 32.5 -76t76.5 -32q47 0 79.5 31.5t32.5 76.5q0 46 -32.5 79.5t-79.5 33.5q-44 0 -76.5 -33.5t-32.5 -79.5z" />
<glyph unicode="V" d="M41 1020q0 114 44.5 217.5t119.5 178.5t178.5 119t216.5 44q114 0 217.5 -44t178.5 -119t119 -178.5t44 -217.5q0 -150 -74 -279l-485 -979l-483 979q-76 133 -76 279zM322 1020q0 -116 81.5 -197.5t198.5 -81.5q116 0 197.5 81.5t81.5 197.5q0 117 -81.5 198.5 t-197.5 81.5q-117 0 -198.5 -81.5t-81.5 -198.5z" />
<glyph unicode="W" d="M41 651q0 171 63.5 328.5t173 275t261.5 193.5t323 92v166h-88v166h334v-166h-80v-166q240 -23 451 -170l180 170l182 -170l-182 -178q182 -247 182 -541q0 -184 -70.5 -350.5t-191 -287t-287.5 -191t-352 -70.5q-180 0 -346 71t-287.5 190.5t-193.5 286.5t-72 351z M270 651q0 -138 52.5 -261t141.5 -211.5t213.5 -140.5t262.5 -52q183 0 336.5 88t242.5 241t89 336q0 137 -52.5 260.5t-142 213t-213 142t-260.5 52.5q-138 0 -262.5 -52.5t-213.5 -142t-141.5 -213t-52.5 -260.5zM774 651q0 91 88 144v342h166v-342q80 -60 80 -144 q0 -46 -23 -83t-57 -58v-104h-166v104q-40 20 -64 56.5t-24 84.5z" />
<glyph unicode="X" d="M131 856v422h2095v-422h-2095zM1534 184l346 533l346 -533h-692z" />
<glyph unicode="Y" d="M41 293v1153h752v115h229v-115h750v-1153h-750v-217l455 -359h-113l-342 236v-4h-229v4l-344 -236h-113l457 359v217h-752zM156 408h1501v780h-1501v-780zM223 573l111 322l182 -279l170 269l156 -254l121 373q3 12 13 16.5t21 1.5t17.5 -15t3.5 -22l-160 -491l-172 280 l-170 -262l-166 254l-74 -211q-3 -12 -14 -17.5t-22 -2.5q-18 10 -18 28q0 5 1 10zM1174 532v115h114v-115h-114zM1176 901q0 62 44 107t105 45q63 0 107.5 -45t44.5 -107q0 -63 -44.5 -108t-107.5 -45q-61 0 -105 45t-44 108zM1403 532v115h115v-115h-115z" />
<glyph unicode="Z" d="M41 -209v840l401 698h199v-149h-98l-344 -566h409l150 -227h370l148 227h410l-343 566h-100v149h199l401 -698v-840h-1802zM569 993h224v580h299v-580h225l-377 -454z" />
<glyph unicode="[" d="M475 1190h1409l-704 -1086z" />
<glyph unicode="\" d="M41 -158v776h424v-776h-424zM711 -158v1800h424v-1800h-424zM1382 -158v1235h424v-1235h-424z" />
<glyph unicode="]" d="M475 104l705 1086l704 -1086h-1409z" />
<glyph unicode="_" d="M41 61q0 86 60.5 146.5t146.5 60.5q85 0 146 -60.5t61 -146.5q0 -84 -61 -144t-146 -60q-86 0 -146.5 59.5t-60.5 144.5zM41 594v311q214 0 408 -83t334.5 -223.5t223.5 -334.5t83 -407h-312q0 200 -98.5 369.5t-268 268.5t-370.5 99zM41 1184v311q223 0 435.5 -59 t392 -164.5t330.5 -257t256.5 -331t164.5 -392t59 -434.5h-311q0 180 -48 352t-133.5 317.5t-208 268t-268 208t-317.5 133.5t-352 48z" />
<glyph unicode="a" d="M0 1229v135q0 15 21.5 28t50.5 13h1857q27 0 48.5 -13t21.5 -28v-135q0 -19 -21 -32t-49 -13h-1857q-29 0 -50.5 13t-21.5 32zM39 -102v1036q0 31 21.5 53.5t52.5 22.5h1775q31 0 52.5 -22.5t21.5 -53.5v-1036q0 -29 -21.5 -50.5t-52.5 -21.5h-1775q-31 0 -52.5 21.5 t-21.5 50.5zM557 676q0 -46 32.5 -78.5t78.5 -32.5h665q46 0 79.5 32.5t33.5 78.5q0 45 -33.5 77.5t-79.5 32.5h-665q-46 0 -78.5 -32t-32.5 -78z" />
<glyph unicode="b" d="M40 -60q0 32 8 97q8 69 32 104q12 18 36 37t47.5 33.5t67.5 35.5t70.5 33t84.5 36.5t83 35.5l219 92v164q-3 2 -7 7t-16 22.5t-22.5 39.5t-21 60t-15.5 82q-4 -1 -8 -1q-24 0 -49 34q-29 38 -29 68q-3 14 -1 37.5t7 46t17.5 36.5t29.5 9q-13 129 -13 174q0 9 1 14 q6 104 103 189t241 85q74 0 138.5 -24.5t107.5 -64t70 -88t32 -97.5q0 -45 -14 -188q18 5 30.5 -9t17.5 -36.5t7.5 -46t-0.5 -37.5q0 -30 -30 -68q-26 -33 -50 -34q-4 0 -8 1q-5 -44 -15.5 -81.5t-22.5 -60.5t-23 -39.5t-18 -23.5l-7 -6l4 -164q41 -18 215 -92 q36 -16 122 -51t125 -52.5t85 -46.5t64 -57q37 -66 37 -145v-115h-1729q-3 25 -3 55z" />
<glyph unicode="c" d="M41 -184v1767h1397v-153h-1217v-1614h-180zM369 -338v1604h1273v-1233l-380 -371h-893zM512 -201h657v318h324v981h-981v-1299zM694 465v108h621v-108h-621zM694 731v117h621v-117h-621z" />
<glyph unicode="d" d="M31 616q0 173 70.5 344t205.5 297q127 136 298 207t344 71t343.5 -71t296.5 -207q136 -126 207 -297t71 -344t-71 -344t-207 -297q-126 -136 -296.5 -207t-343.5 -71t-344 71t-298 207q-135 126 -205.5 297t-70.5 344zM469 270l164 -161l315 325l342 -325l162 161 l-319 344l319 320l-162 162l-342 -318l-315 318l-164 -162l317 -320z" />
<glyph unicode="e" d="M166 -346l196 545l353 -346zM489 309l979 967l336 -334l-985 -985zM1573 1380l215 226l358 -336l-233 -226z" />
<glyph unicode="f" d="M41 1266q0 23 14.5 44t32.5 39t47 34.5t57 29.5t63 25t65.5 21t63.5 16.5t57.5 12.5t47.5 9q72 21 172 31.5t167 12t186 1.5q117 0 181 -1.5t162.5 -12t180.5 -31.5q39 -8 77 -17.5t97.5 -27t106.5 -40t90 -51t62 -65.5q12 -25 12 -51q0 -14 -3 -28q1 -1 1 -3 q0 -29 -177 -244q-186 -226 -377.5 -448.5t-191.5 -230.5v-242v-287q0 -29 -78.5 -47t-142.5 -18q-75 0 -147 17.5t-72 47.5v287v242q0 8 -191.5 230.5t-377.5 448.5q-178 215 -178 244q0 2 1 3q-8 26 -8 49zM244 1235q0 -50 59 -95t161 -77.5t245.5 -52t304.5 -19.5 q205 0 382.5 32.5t282.5 89t105 122.5q0 52 -105 98t-283 73.5t-382 27.5q-214 0 -392 -27.5t-278 -73t-100 -98.5z" />
<glyph unicode="g" d="M41 541v135q0 38 30 68t70 30h70q35 0 82.5 54.5t75.5 101.5q11 20 11 45q0 14 -4 29q-9 44 -40 73l-49 47q-29 29 -29 70.5t29 69.5l96 96q28 29 69 29t70 -29l49 -49q17 -19 63 -21q12 -1 24 -1q34 0 66 5q42 8 67 17q32 11 55.5 47.5t23.5 77.5v67q0 41 30.5 72 t70.5 31h133q40 0 70 -31t30 -72v-67q0 -36 55 -85t101 -75q18 -8 40 -8q16 0 33 4q43 9 70 39l49 49q29 29 70.5 29t69.5 -29l96 -96q29 -28 29 -69.5t-29 -70.5l-49 -47q-19 -18 -21 -65q-1 -12 -1 -23q0 -35 5 -67q8 -42 17 -66q10 -34 48 -58t79 -24h65q41 0 72 -30 t31 -70v-133q0 -39 -31 -69t-72 -30h-65q-37 0 -88.5 -56.5t-71.5 -98.5q-11 -20 -11 -45q0 -14 3 -30q10 -43 41 -71l49 -49q29 -29 29 -70t-29 -69l-96 -96q-28 -29 -69.5 -29t-70.5 29l-49 49q-17 19 -64 21h-21q-35 0 -66 -5q-41 -7 -68 -16q-33 -10 -56.5 -46.5 t-23.5 -76.5v-70q0 -41 -30 -71.5t-70 -30.5h-133q-40 0 -70.5 30.5t-30.5 71.5v70q0 24 -32 59t-63.5 58.5t-59.5 40.5q-18 9 -41 9q-16 0 -34 -4q-44 -10 -71 -40l-49 -49q-29 -29 -70 -29t-69 29l-96 96q-29 28 -29 69t29 70l49 49q19 17 22 63q1 14 1 28q0 32 -5 62 q-7 42 -16 66q-10 34 -47.5 58t-77.5 24h-70q-39 0 -69.5 30t-30.5 69zM604 608q0 -180 126.5 -306t305.5 -126q180 0 307 126t127 306t-127 306t-307 126q-179 0 -305.5 -126t-126.5 -306z" />
<glyph unicode="h" d="M40 341v20q0 117 48 233q12 29 34 71t40 73t51 87.5t45 77.5q38 65 122.5 224.5t100.5 191.5q28 55 62 84t63 30.5t50.5 -5.5t33.5 -21q20 -24 24 -53.5t-7.5 -61t-26 -59t-34 -62t-28.5 -55.5q-35 -62 -66 -118q-27 -46 -84 -162l-24 -48q-14 -15 -24 -50q-4 -13 -4 -25 q0 -21 10 -39q12 -15 27.5 -15.5t33.5 12.5t34 27.5t39.5 37.5t39.5 36q210 174 470 390t470 390q44 36 78 54q32 17 59 17h3q30 -1 51 -26q24 -29 29.5 -57.5t-1 -51.5t-32 -53t-49.5 -51t-68 -57q-134 -111 -224 -186.5t-210 -175.5q-29 -23 -44 -37t-25.5 -31.5t-7 -34.5 t18.5 -39q11 -16 22 -21t26 3t25.5 17t33 30t35.5 33q30 25 473 391q14 12 36 31t38.5 33.5t40 34.5t41 33t41.5 29.5t40 24t38 16t35.5 6t31.5 -6.5q54 -58 54 -101q0 -13 -5 -26q-2 -18 -21.5 -43t-52 -53.5t-62.5 -52.5t-67.5 -52t-50.5 -39q-363 -299 -488 -403 q-62 -50 -85.5 -80t-2.5 -54q22 -15 41.5 -18t40 7t34 20t39 33t38.5 34q186 154 352 293q16 13 41 34.5t39.5 33.5t34.5 26.5t34 19t31 5.5t32 -8t30 -27q16 -13 24.5 -27.5t8 -30t-4.5 -29t-18 -31t-25.5 -31t-34 -32.5t-37.5 -31.5t-41 -33.5t-40 -32 q-102 -85 -173.5 -145t-195.5 -163q-11 -9 -17.5 -15t-17.5 -16t-16 -17.5t-9.5 -17t-3 -17.5t8.5 -15q16 -21 35.5 -25t43.5 9.5t41.5 26t47 39.5t41.5 36q4 4 9 8l5 4l2 2q139 115 182 142q52 34 92 34q26 0 46 -15q11 -8 22 -21q26 -32 26 -58q0 -23 -20 -56 q-22 -36 -83 -89t-160 -132.5t-250 -198.5q-232 -182 -381 -300q-94 -78 -228 -106q-95 -20 -188 -21q-39 0 -78 4q-134 22 -259 87t-212 173q-85 103 -132 216t-51 240z" />
<glyph unicode="i" d="M41 676q7 17 28 35.5t48 25.5q101 19 207 19q88 0 180 -13q44 98 131 213q-195 117 -346 154q-31 34 -31 57.5t23 40.5q20 20 38.5 24t55.5 3q222 -70 366 -160q20 29 64 68q106 92 199 155q-116 249 -127 428q0 50 41 82q28 14 46 14q24 0 31 -24q35 -210 163.5 -451.5 t334.5 -467.5q208 -226 440 -376t437 -198q18 -7 18 -26.5t-18 -51.5q-8 -16 -33.5 -27t-55.5 -10q-187 27 -411 170q-58 -78 -172 -192q-11 -9 -34.5 -28.5t-35.5 -28.5q102 -215 121 -383q0 -54 -27 -86q-16 -12 -28.5 -16t-32 3.5t-41.5 30.5q-29 180 -125 356 q-107 -66 -221 -114q3 -42 2 -83q0 -157 -39 -298q-10 -31 -29.5 -49t-42.5 -21q-3 -1 -7 -1q-12 0 -30 10q-22 12 -30 30q12 78 12 167.5t-12 190.5q-47 -12 -100 -12h-15q-61 2 -114 11t-107 26.5t-93.5 34.5t-72.5 35l723 661q49 53 49 95q0 24 -16 44q-26 26 -57 26 q-40 0 -89 -42l-723 -668q-20 45 -36.5 102t-28.5 126q-9 57 -9 118q1 13 1 27q2 76 22 139q-124 35 -263 35q-45 0 -91 -4q-19 7 -29 32q-8 21 -8 36v6zM1282 1432q80 29 201 47v10q0 24 14 59.5t43.5 78.5t69.5 81.5t99.5 68.5t125.5 38q17 -2 7.5 -17.5t-34.5 -43.5 t-49 -68q-25 -40 -37 -92q-5 -23 -5 -48q0 -32 9 -67v-11q153 -30 259 -145q97 -103 116 -260q2 0 10 -6q38 -13 79 -13q92 0 192 69q53 37 56 39q14 6 13 -11q-12 -65 -46.5 -121.5t-76.5 -93t-88.5 -63t-84 -38t-60.5 -10.5q-2 0 -6 6q-10 -64 -57 -198q-231 153 -420 362 q-184 198 -330 447zM1665 1311q-9 -8 -9 -19q0 -12 12 -27q22 -29 69 -67.5t55 -46.5q10 -11 40 -57q32 -46 56 -66q13 -11 25 -12q10 0 18 8q11 12 11 35q0 26 -15 67q-28 75 -63 111q-38 35 -105 65q-40 18 -65 18q-18 0 -29 -9z" />
<glyph unicode="j" d="M580 553h381v864h448v-864h379l-608 -762z" />
<glyph unicode="k" d="M580 655l608 762l600 -762h-381v-864h-446v864h-381z" />
<glyph unicode="l" d="M127 164v422h2095v-422h-2095zM127 1257h692l-346 -532z" />
<glyph unicode="m" d="M41 -217v1337h1837v-1337q0 -44 -24.5 -64t-59.5 -20h-1673q-33 0 -56.5 20t-23.5 64zM41 1202v166q0 33 25 59.5t55 26.5h317v229h164v-229h711v229h168v-229h313q31 0 57.5 -26.5t26.5 -59.5v-166h-1837zM207 -154h1501v1127h-1501v-1127zM326 735l237 74h166v-827 h-221v606l-137 -27zM922 606v193h634v-174l-366 -643h-250l367 624h-385z" />
<glyph unicode="n" d="M39 218.5q0 85.5 28 169.5t68 143.5t88 107.5l842 842q78 67 184 106q57 20 115 20q48 0 98 -14q108 -30 191 -114q43 -43 73 -88.5t48 -96.5q16 -44 17 -91q0 -7 -1 -15q-3 -56 -29 -109q-14 -49 -41 -95.5t-47 -68.5l-20 -22l-768 -766q-32 -31 -70 -52t-86 -31 q-16 -3 -32 -3q-33 -1 -71 13q-56 20 -108 72.5t-73 108.5q-14 39 -14 74q1 17 3 31q10 48 31 87t53 69l510 512q31 30 67 36q7 1 13 1q28 0 51 -21q21 -25 21 -53q0 -7 -1 -13q-6 -34 -36 -65l-512 -510q-29 -30 -31 -74q0 -3 1 -7q0 -39 26 -66q28 -28 73 -27l2 -1 q46 0 72 30l770 766q18 18 36 54t32 88q7 24 7 50q0 30 -9 63q-16 61 -66 111q-36 36 -84 55q-46 19 -87 19h-3q-42 0 -84 -10q-33 -8 -61 -23.5t-39 -26.5l-12 -12l-842 -842q-15 -15 -27.5 -29t-39 -51.5t-42 -73.5t-25.5 -90q-5 -28 -5 -55q1 -25 5 -49q8 -52 42 -115.5 t94 -123.5t124 -92t120 -36q17 -1 34 -1q38 0 76 6q54 9 94.5 30.5t72 41.5t48.5 36l17 15l919 917q6 4 16.5 8.5t37.5 2t49 -26.5q16 -18 18 -41v-8q0 -18 -6 -29l-6 -14l-920 -918q-48 -49 -106.5 -88.5t-142.5 -68.5t-169 -29t-187.5 45.5t-197.5 140.5 q-94 94 -140 196.5t-46 188z" />
<glyph unicode="o" d="M621 -254v1704h1183v-1704h-424v338h-338v-338h-421zM788 338h170v254h-170v-254zM788 676h170v254h-170v-254zM788 1016h170v252h-170v-252zM1126 338h170v254h-170v-254zM1126 676h170v254h-170v-254zM1126 1016h170v252h-170v-252zM1466 338h168v254h-168v-254z M1466 676h168v254h-168v-254zM1466 1016h168v252h-168v-252z" />
<glyph unicode="p" d="M41 20v1016h2216v-1016h-272v-188h-1659v188h-285zM399 1202v350h1506v-350h-1506zM426 -68h1462v480h-1462v-480zM1804 745h176v144h-176v-144z" />
<glyph unicode="q" d="M273 1310q0 7 4 20q5 16 12.5 34t26.5 42t46 46q114 70 242 70q51 0 103 -11q18 -4 34.5 -9t23.5 -8l7 -3l735 -209q27 -14 27 -41v-1393q0 -13 -11.5 -24.5t-23.5 -11.5q-15 0 -26 11t-11 25v1369l-741 215q-72 22 -133 22h-3q-62 -1 -99.5 -15t-75.5 -40 q-21 -18 -31.5 -37.5t-7.5 -43t36.5 -47t96.5 -42.5l708 -205v-1397l-761 221q-50 14 -77.5 26.5t-53 36.5t-36 63t-10.5 98v1226z" />
<glyph unicode="r" d="M41 606h242q0 -149 56.5 -287t164.5 -243q255 -223 530 -223q253 0 512 223q21 17 49 47l-245 217h635v-606l-222 217q-10 -9 -17.5 -22t-14 -20t-17.5 -7q-143 -143 -318 -217t-362 -74q-404 0 -704 291q-289 297 -289 704zM66 852v629l217 -217l47 47q298 295 704 295 q187 0 362 -74.5t318 -220.5q143 -140 218 -327t75 -378h-244q0 284 -217 512q-215 215 -512 215q-318 0 -530 -215q-14 0 -26 -12t-23 -12l241 -242h-630z" />
<glyph unicode="s" d="M45 1090q-5 39 -5 75q0 133 71 211q78 75 190 102q64 16 116 16q38 0 70 -9v117h1194v-117q34 9 73 9q54 0 118 -16q112 -27 190 -102q72 -76 73 -204q0 -38 -7 -82q-16 -75 -54 -140t-89 -111t-107 -82t-114.5 -58.5t-104.5 -35.5t-84 -18q-71 -181 -194 -289t-296 -108 t-294 108t-191 289q-38 5 -84.5 18t-105 35.5t-115 58.5t-107.5 82t-89 111t-54 140zM238 1188q0 -5 -1 -10q0 -26 11 -64q5 -39 27 -73.5t48.5 -58.5t67.5 -48t70.5 -37t70.5 -29q-3 23 -12 87.5t-13 96t-9.5 81.5t-8 87.5t-2.5 69.5q-25 8 -56 8q-28 0 -60 -6 q-69 -14 -105 -47q-10 0 -18 -14t-10 -43zM666 -219q12 1 31.5 3t69 12t87.5 23.5t69 39t31 57.5v195h267v-195q0 -32 29.5 -57.5t71.5 -39t84 -23t72 -12.5l29 -3v-158h-841v158zM1640 868q41 16 70.5 29.5t70 37t67.5 47.5t49.5 58.5t29.5 73.5q11 38 11 64v10 q-2 29 -11 43t-22 14q-32 33 -103 47q-33 7 -62 7q-33 0 -59 -9q0 -155 -41 -422z" />
<glyph unicode="t" d="M41 78v1024q0 85 61 151t144 66h147v-1450h-147q-85 0 -145 61t-60 148zM569 -131v1450h273v166q0 39 26 67.5t66 28.5h442q38 0 58 -27.5t20 -68.5v-166h279v-1450h-1164zM950 1319h389v151h-389v-151zM1919 -131v1450h156q85 0 143.5 -65.5t58.5 -151.5v-1024 q0 -88 -57.5 -148.5t-144.5 -60.5h-156z" />
<glyph unicode="u" d="M651 264l467 719l469 -719h-936z" />
<glyph unicode="v" d="M147 645q0 220 15 375.5t37 155.5q4 0 4 -5q58 -30 133 -83t131.5 -96.5t127.5 -84t130 -55.5q137 -32 295.5 -58.5t333.5 -46t300.5 -31.5t309.5 -27t248 -21v-45q-34 -3 -244 -20t-317.5 -27.5t-294 -31t-342 -47t-293.5 -59.5q-59 -15 -128.5 -55.5t-126 -84 t-131 -96.5t-132.5 -83q0 -4 -4 -4q-22 0 -37 155t-15 375z" />
<glyph unicode="w" d="M41 582q0 159 58.5 302.5t157.5 248t237 166t290 61.5q160 0 301 -61.5t241 -166t158 -248t58 -302.5q0 -147 -58 -279.5t-158 -229t-241 -153.5t-301 -57q-152 0 -290 57t-237 153.5t-157.5 229.5t-58.5 279zM283 -123q99 -88 233 -131t283 -43q305 0 499 174 q0 -8 -1 -21t-5 -50.5t-9.5 -71.5t-16.5 -76t-24.5 -72t-34.5 -50.5t-46 -20.5h-362h-379q-27 0 -51.5 37.5t-39.5 90.5t-26 106t-15 91zM283 1325q1 8 2.5 21t7.5 50.5t13 72t19 76t25 72t31.5 51t38.5 20.5h379h362q34 0 60.5 -37.5t40 -91t22.5 -106.5t12 -91l2 -37 q-192 170 -499 170q-149 0 -283.5 -41.5t-232.5 -128.5zM680 582q0 -2 0.5 -6.5t3.5 -16.5t8 -22t15 -21.5t24 -17.5l258 -123q31 -12 57 -12q6 1 12 1q32 4 44 23l24 45q11 21 11 40q0 14 -6 26q-15 29 -48 43l-213 92v293q0 52 -16.5 69t-60.5 17h-29q-42 0 -63 -18 t-21 -68v-344zM1612 498v207h100q28 0 49 -24.5t21 -59.5v-54q0 -18 -22.5 -43.5t-47.5 -25.5h-100z" />
<glyph unicode="x" d="M313 1245l222 228l546 -545l547 545l225 -228l-540 -547l538 -540l-225 -228l-545 543l-544 -541l-222 228l541 538z" />
<glyph unicode="y" d="M41 457l428 426v-293h961v-268h-961v-293zM700 842v266h963v293l426 -426l-426 -426v293h-963z" />
<glyph unicode="z" d="M41 610l299 445l297 -445h-186q0 -248 159 -444q0 -2 2 -2q28 -32 43 -47l-157 -162q-9 12 -28.5 34t-29.5 34q0 2 -4 6q-6 8 -20.5 25.5t-20.5 25.5q0 1 -1 4t-1 4q-164 237 -164 522h-188zM504 1276q10 11 61 57q1 1 3 2t3 2q48 38 54 41q1 1 3 2t3 2q236 164 522 164 v189l444 -301l-444 -295v186q-243 0 -444 -160v-2q-8 -6 -50 -43zM719 -207l444 299v-188q253 0 447 164q0 2 2 2q5 4 21 19.5t26 23.5l156 -162q-51 -46 -64 -55q-5 -5 -6 -5q-15 -17 -51 -41q-1 -1 -3.5 -2.5t-4.5 -3.5q-235 -163 -523 -163v-187zM1663 1114l156 158 q12 -12 57 -62q0 -2 4 -6q40 -51 41 -53q0 -4 4 -8q162 -238 162 -522h186l-295 -443l-299 443h187q0 246 -160 444q0 2 -2 2q-7 11 -23.5 28.5t-17.5 18.5z" />
<glyph unicode="{" d="M563 647l1086 705v-1409z" />
<glyph unicode="|" d="M774 -27q0 -151 107.5 -256.5t261.5 -105.5q150 0 257 106t107 256q0 100 -49.5 182.5t-132.5 129.5v1095q0 75 -53.5 128t-128.5 53q-78 0 -131.5 -53t-53.5 -128v-241h138v-111h-138v-160h138v-112h-138v-160h138v-115h-138v-196q-84 -47 -134 -130t-50 -182z" />
<glyph unicode="}" d="M698 -57v1409l1086 -705z" />
<glyph unicode="~" d="M805 68q0 89 36.5 170t102.5 141v938q0 115 81.5 196.5t197.5 81.5q114 0 195 -81.5t81 -196.5v-938q65 -61 102 -142t37 -169q0 -172 -121.5 -294t-293.5 -122t-295 122t-123 294zM944 68q0 -114 82 -195.5t197 -81.5q114 0 195 81.5t81 195.5q0 76 -37.5 139.5 t-101.5 99.5v1010q0 57 -40 98t-97 41q-58 0 -100 -41t-42 -98v-64h86v-79h-86v-130h129v-79h-129v-127h86v-80h-86v-129h129v-80h-129v-242q-62 -36 -99.5 -100t-37.5 -139z" />
<glyph unicode="&#xa1;" d="M70 -68v1387q0 92 60 156t153 73q4 4 20 4h1378q17 0 21 -4q91 -9 152 -73.5t61 -155.5v-1387q0 -94 -69.5 -162.5t-164.5 -68.5h-1378q-97 0 -165 68t-68 163zM262 -68q0 -12 13 -22t28 -10h1378q15 0 28 10t13 22v1387q0 15 -13 26t-28 11h-1378q-15 0 -28 -11t-13 -26 v-1387z" />
<glyph unicode="&#xa2;" d="M510 1006q0 24 12 41t25 23.5t35.5 15t29.5 12.5q25 12 52 38.5t41 51.5q7 17 32 32t58 23v8q0 101 71 171.5t172 70.5h244q103 0 175.5 -70.5t72.5 -171.5v-8q69 -17 92 -55q10 -25 37 -51.5t53 -38.5q5 -3 38 -12.5t49 -27t16 -52.5q0 -18 -93 -48v-993 q0 -100 -71 -172t-170 -72h-635q-102 0 -175 72t-73 172v993q-88 30 -88 48zM721 -35q0 -50 36.5 -85.5t88.5 -35.5h635q48 0 84.5 36t36.5 85v979h-320h-244h-317v-979zM856 -35v858h121v-858h-121zM918 1251h120h244h123q0 50 -35.5 85.5t-87.5 35.5h-244 q-49 0 -84.5 -35.5t-35.5 -85.5zM1100 -35v858h123v-858h-123zM1346 -35v858h120v-858h-120z" />
<glyph unicode="&#xa3;" d="M121 520q0 104 73.5 178t176.5 74q77 0 139 -42t92 -109h160l534 417q30 37 78 37h389l-51 170l406 -270l-406 -270l51 169h-340l-446 -354l446 -354h340l-51 168l406 -268l-406 -271l51 168h-389q-46 0 -78 37l-534 420h-160q-30 -69 -92 -110.5t-139 -41.5 q-103 0 -176.5 74t-73.5 178z" />
<glyph unicode="&#xa4;" d="M274 827q0 114 45 211t125.5 167.5t191 120.5t242.5 74.5t279 24.5q111 0 205 -20q73 -4 163.5 -33t144.5 -56l54 -28q52 -31 92.5 -60.5t85 -73.5t74 -89.5t49 -107.5t19.5 -130q0 -137 -76 -249.5t-203 -183.5t-288 -109.5t-336 -38.5l-396 -473v528q-151 62 -227 112 q-244 158 -244 414z" />
<glyph unicode="&#xa5;" d="M100 -14v1284q3 13 15.5 21.5t27.5 8.5h1964q19 0 33 -13t14 -30v-1259q0 -17 -14 -29t-33 -12h-1964q-15 0 -27.5 8.5t-15.5 20.5zM225 1171l903 -616l902 616h-1805zM256 106h1741v902l-869 -559l-872 559v-902z" />
<glyph unicode="&#xa7;" d="M73 -264.5q-2 40.5 7 107.5t29 102q11 18 28.5 35t46 34.5t51.5 30.5t66.5 32t68 29t78.5 31.5t76 30.5l230 96v185q-7 6 -18.5 19t-35.5 68t-34 126q-31 -7 -64 33t-33 73q0 20 2.5 42.5t8.5 48.5t20 41t33 11q-23 121 -23 181q8 112 111 200t254 88q148 0 247 -87.5 t107 -200.5q11 -49 -10 -181q19 3 30.5 -11t16 -42.5t5.5 -46t1 -43.5q0 -33 -27.5 -73t-56.5 -33q-6 -45 -16.5 -83.5t-22.5 -61t-22.5 -39t-17.5 -22.5l-7 -7v-185q43 -18 225 -96q30 -12 88.5 -35t88.5 -35t74.5 -32t69.5 -35t49.5 -36t37.5 -42q31 -53 31 -150v-118 h-1792q1 10 -1 50.5zM1534 799v153h264v256h154v-256h260v-153h-260v-258h-154v258h-264z" />
<glyph unicode="&#xa9;" d="M224 640q0 176 70.5 349.5t205.5 306.5q134 135 308 205.5t350 70.5t348.5 -70.5t305.5 -205.5q133 -133 202.5 -306.5t69.5 -349.5t-69.5 -349t-202.5 -305q-133 -135 -305.5 -205.5t-348.5 -70.5t-350 70.5t-308 205.5q-135 132 -205.5 305t-70.5 349z" />
<glyph unicode="&#xab;" d="M41 567l575 580l-4 -346h858v-420h-858l4 -395zM973 104h796v1010h-796v217h1052v-1448h-1052v221z" />
<glyph unicode="&#xad;" d="M70.5 368q-62.5 236 0 471.5t238.5 411.5q133 133 304.5 202.5t345.5 69.5t345.5 -69.5t303.5 -202.5q133 -132 202 -303t69 -344.5t-69 -344.5t-202 -304q-132 -133 -303.5 -202t-345.5 -69t-345.5 69t-304.5 202q-176 177 -238.5 413zM383 496h1153v235h-1153v-235z " />
<glyph unicode="&#xae;" d="M40 -285q-1 32 6.5 100.5t27.5 98.5q11 20 35 40t50 36t69 35.5t75.5 33t87 35t86.5 35.5q76 30 128 52t67 29l14 7v170q-6 6 -16.5 19t-31.5 65.5t-30 120.5q-32 -7 -62 30t-30 72q0 19 2.5 39.5t8 44.5t18 37.5t30.5 9.5q-20 120 -20 181q6 107 102 189.5t244 82.5 q144 0 239 -83t103 -189q10 -38 -10 -181q17 3 28 -9.5t15 -38.5t5 -42.5t1 -40.5q0 -35 -25.5 -72t-54.5 -30q-9 -68 -29.5 -119t-36.5 -69l-16 -17v-170q43 -20 215 -88q43 -19 123 -50.5t122 -49.5t87 -46.5t64 -58.5q28 -72 28 -141v-121h-1716q-2 21 -3 53zM160 825 v127h264v-127h-264zM336 1378l88 92l192 -192l-92 -90zM848 1370v272h131v-272h-131zM1202 1278l193 184l90 -92l-180 -192zM1395 813v139h264v-139h-264z" />
<glyph unicode="&#xb1;" d="M303 -55q0 43 20.5 72.5t51.5 29.5h375q12 0 16 -4.5t2.5 -14.5t-5.5 -21.5t-7.5 -28.5t-3.5 -33t3.5 -33.5t7.5 -28.5t5.5 -21t-2.5 -15t-16 -5h-375q-30 0 -51 30.5t-21 72.5zM604.5 671.5q-0.5 24.5 7.5 59.5q37 -59 196 -97t368 -38q210 0 368 38t195 97q9 -35 9 -59 t-9 -70q-3 -37 -53.5 -86.5t-120.5 -71.5q-166 -57 -389 -57q-225 0 -388 57q-73 22 -123.5 71.5t-50.5 86.5q-9 45 -9.5 69.5zM604.5 962.5q-0.5 24.5 7.5 59.5q37 -59 196 -97t368 -38q210 0 368 38t195 97q9 -35 9 -59t-9 -70q-3 -36 -53.5 -86t-120.5 -72 q-176 -57 -389 -57q-215 0 -388 57q-73 22 -123.5 72t-50.5 86q-9 45 -9.5 69.5zM604.5 1255.5q0.5 -24.5 9.5 -71.5q0 -36 50.5 -85t123.5 -71q163 -57 388 -57q223 0 389 57q70 22 120.5 71t53.5 85q9 47 9 71t-9 58q-37 -57 -195.5 -95t-367.5 -38q-208 0 -367.5 38 t-196.5 95q-8 -33 -7.5 -57.5zM614 1448q0 36 75 70.5t206.5 56.5t280.5 22q150 0 282 -22t206.5 -56.5t74.5 -70.5q0 -13 -10 -23q-37 -49 -195 -87t-358 -38q-199 0 -356.5 37.5t-196.5 87.5q-9 13 -9 23zM823 -55q0 46 11.5 86.5t22.5 57.5l11 17h193v213q18 0 56.5 -1 t58.5 -1q21 0 59.5 1t56.5 1v-213h191q5 -6 12 -18.5t19 -54.5t12 -88q0 -45 -11 -85.5t-21 -58.5l-11 -18h-615q-5 7 -12.5 19.5t-20 55t-12.5 87.5zM1585 28q2 -10 5.5 -21.5t7.5 -28.5t4 -33t-4 -33.5t-7.5 -28.5t-5.5 -21t2 -15t15 -5h376q29 0 49.5 30.5t20.5 72.5 q0 43 -20.5 72.5t-49.5 29.5h-376q-11 0 -15 -4.5t-2 -14.5z" />
<glyph unicode="&#xb6;" d="M811 522h752l-375 -577zM811 680l375 577l377 -577h-752z" />
<glyph unicode="&#xb7;" d="M365 582q0 135 51.5 259t146.5 218q97 97 219.5 147.5t257.5 50.5h140v402l745 -533l-745 -532v401h-140q-171 0 -292 -121t-121 -292t121.5 -293t291.5 -121l797 8v-262l-797 -8q-134 -1 -257 50t-220 148q-95 95 -146.5 219t-51.5 259z" />
<glyph unicode="&#xbb;" d="M41 -117v1448h1053v-221h-797v-1010h797v-217h-1053zM594 414v420h860l-4 395l573 -582l-573 -579l4 346h-860z" />
<glyph unicode="&#xbf;" d="M31 1014q0 167 87.5 310.5t235 227.5t316.5 84q170 0 319 -84t237.5 -227.5t88.5 -310.5q0 -136 -65.5 -259.5t-172.5 -215.5q-62 -69 -102 -162t-53 -178h-506q-20 87 -78.5 200.5t-114.5 175.5q-192 205 -192 439zM246 973l309 -500q3 -6 11 -7.5t14 1.5q29 18 14 43 l-227 405l116 -69q20 -8 35 4l146 84q7 -4 30.5 -19.5t51.5 -32t59 -32.5q14 -11 35 -4l114 69l-243 -405q-15 -26 2 -43q8 -8 16 -8q11 0 21 14l327 500q14 23 -10 51q-25 20 -43 8l-197 -94q-18 7 -54 32.5t-64 47.5t-29 22q-18 11 -37 0l-145 -102l-197 94q-20 10 -47 -8 q-22 -26 -8 -51zM416 68q0 25 18 43t45 18h381q25 0 45.5 -19.5t20.5 -46.5q0 -24 -21 -41.5t-49 -17.5h-377q-28 0 -45.5 18t-17.5 46zM416 -127q0 26 17.5 43.5t45.5 17.5h377q28 0 49 -17.5t21 -43.5q0 -27 -21 -45t-49 -18h-377q-28 0 -45.5 17.5t-17.5 45.5zM483 -266 h357q-9 -53 -51.5 -89t-100.5 -36h-55q-55 0 -99 36.5t-51 88.5z" />
<glyph unicode="&#xe0;" d="M41 -322h156v928q6 -6 18.5 -16.5t56 -37t93 -46.5t130 -36.5t167.5 -16.5q137 0 331 -19.5t319 -39.5l126 -19l-236 387l236 389q-52 9 -138 21.5t-293.5 33.5t-344.5 21q-87 0 -166.5 16t-131.5 38.5t-91.5 45.5t-57.5 39l-18 16v156h-156v-1860z" />
<glyph unicode="&#xe8;" d="M385 -119h1638v1641h-1638v-1641zM500 -2v1407h1407v-1407h-1407zM793 180v1045h317v-1045h-317z" />
<glyph unicode="&#xe9;" d="M41 -330v1911h1071l158 -158l-176 -182l-101 100h-714v-1429h1075v635l237 239v-1116h-1550zM475 131l178 436l260 -256zM764 698l747 740l277 -275l-748 -747zM1608 1542l159 158l281 -277l-162 -139z" />
<glyph unicode="&#xec;" d="M27 866v125h694v-125h-694zM197 641v125h524v-125h-524zM414 416v125h307v-125h-307zM856 117v1059h1487v-1059h-1487zM987 248h1223v741l-611 -430l-612 430v-741zM989 1042l610 -311l611 311h-1221z" />
<glyph unicode="&#xf2;" d="M205 80v1458q0 82 82 82h1710q80 0 80 -82v-1731q0 -79 -80 -79h-1438zM426 1165h223v221h-223v-221zM686 -80q0 -19 14 -33t35 -14h1151q20 0 34.5 14t14.5 33v551q0 20 -14.5 33.5t-34.5 13.5h-1151q-22 0 -35.5 -13.5t-13.5 -33.5v-551zM840 -16v370q0 11 8.5 19 t21.5 8h140q9 0 18.5 -8.5t9.5 -18.5v-370q0 -8 -9.5 -16.5t-18.5 -8.5h-140q-13 0 -21.5 8.5t-8.5 16.5z" />
<glyph unicode="&#xf9;" d="M721 958h936l-467 -718z" />
<glyph unicode="&#x2000;" horiz-adv-x="936" />
<glyph unicode="&#x2001;" horiz-adv-x="1872" />
<glyph unicode="&#x2002;" horiz-adv-x="936" />
<glyph unicode="&#x2003;" horiz-adv-x="1872" />
<glyph unicode="&#x2004;" horiz-adv-x="624" />
<glyph unicode="&#x2005;" horiz-adv-x="468" />
<glyph unicode="&#x2006;" horiz-adv-x="312" />
<glyph unicode="&#x2007;" horiz-adv-x="312" />
<glyph unicode="&#x2008;" horiz-adv-x="234" />
<glyph unicode="&#x2009;" horiz-adv-x="374" />
<glyph unicode="&#x200a;" horiz-adv-x="104" />
<glyph unicode="&#x2010;" d="M70.5 368q-62.5 236 0 471.5t238.5 411.5q133 133 304.5 202.5t345.5 69.5t345.5 -69.5t303.5 -202.5q133 -132 202 -303t69 -344.5t-69 -344.5t-202 -304q-132 -133 -303.5 -202t-345.5 -69t-345.5 69t-304.5 202q-176 177 -238.5 413zM383 496h1153v235h-1153v-235z " />
<glyph unicode="&#x2011;" d="M70.5 368q-62.5 236 0 471.5t238.5 411.5q133 133 304.5 202.5t345.5 69.5t345.5 -69.5t303.5 -202.5q133 -132 202 -303t69 -344.5t-69 -344.5t-202 -304q-132 -133 -303.5 -202t-345.5 -69t-345.5 69t-304.5 202q-176 177 -238.5 413zM383 496h1153v235h-1153v-235z " />
<glyph unicode="&#x2012;" d="M70.5 368q-62.5 236 0 471.5t238.5 411.5q133 133 304.5 202.5t345.5 69.5t345.5 -69.5t303.5 -202.5q133 -132 202 -303t69 -344.5t-69 -344.5t-202 -304q-132 -133 -303.5 -202t-345.5 -69t-345.5 69t-304.5 202q-176 177 -238.5 413zM383 496h1153v235h-1153v-235z " />
<glyph unicode="&#x2013;" horiz-adv-x="2492" d="M596 39v1434h272v-1434h-272zM995 756v2l684 684l201 -197l-489 -487l489 -490l-197 -200z" />
<glyph unicode="&#x2014;" d="M0 135q0 108 42 209t118 176l358 361q76 76 177 117.5t210 41.5q199 0 350 -129l-235 -235q-53 35 -115 35q-89 0 -153 -64l-359 -360q-63 -60 -63 -152q0 -89 63 -152t152 -63q51 0 101.5 25t66.5 69h487l-270 -264q-77 -76 -177 -118t-208 -42q-148 0 -273.5 73 t-198.5 198.5t-73 273.5zM793 317l235 236q53 -35 115 -35q89 0 153 64l359 360q63 60 63 152q0 89 -63 152t-152 63q-51 0 -101.5 -25.5t-66.5 -69.5h-487l270 265q77 76 177 117.5t208 41.5q148 0 273.5 -72.5t198.5 -198t73 -273.5q0 -108 -42 -209t-118 -176l-358 -361 q-77 -77 -177.5 -118.5t-209.5 -41.5q-199 0 -350 129z" />
<glyph unicode="&#x2018;" d="M41 -240v1508h528l316 315q-2 10 -2 21q0 34 23.5 60t56.5 26t57 -26t24 -60q0 -11 -2 -21l314 -315h530v-1508h-1845zM250 -8h1417v1044h-1417v-1044zM319 131q6 9 16.5 23.5t43 52t65 66t77.5 52t85 23.5q48 0 85.5 -11.5t58.5 -25.5t59 -25.5t86 -11.5q38 0 76.5 22 t73.5 53t73 62.5t91 53.5t112 22q44 0 83.5 -19.5t67 -51t51 -69.5t38 -76t25 -69.5t14.5 -51.5l4 -19h-1285zM463 717q0 89 62 152t151 63q88 0 153.5 -63t65.5 -152q0 -88 -65 -150.5t-154 -62.5t-151 62t-62 151zM686 1268h551l-254 256q-8 -2 -20 -2q-13 0 -21 2z" />
<glyph unicode="&#x2019;" d="M573 66v729q0 20 8.5 34t19 21t31 10t33 3.5t37 -0.5t31.5 -1v260q0 116 63.5 208t162 140.5t210.5 49.5q112 -1 211 -49.5t163 -140.5t65 -208v-260q7 0 30.5 1t36 0.5t32.5 -3.5t30.5 -10t19 -21t8.5 -34v-729q0 -66 -65 -66h-1061q-66 0 -66 66zM920 862h499v254 q0 102 -74 154.5t-176 54.5q-102 -2 -175.5 -54.5t-73.5 -154.5v-254z" />
<glyph unicode="&#x201a;" d="M573 66v729q0 60 74 67h772v254q0 102 -74 154.5t-176 54.5q-102 -2 -175.5 -54.5t-73.5 -154.5v-55h-187v61q0 116 63.5 208t162 140.5t210.5 49.5q112 -1 211 -49.5t163 -140.5t65 -208v-260q7 0 30.5 1t36 0.5t32.5 -3.5t30.5 -10t19 -21t8.5 -34v-729q0 -66 -65 -66 h-1061q-66 0 -66 66z" />
<glyph unicode="&#x2022;" d="M453 264l489 488l-489 489l196 201l688 -688v-2l-684 -684zM1464 37v1433h273v-1433h-273z" />
<glyph unicode="&#x2026;" d="M4 98q0 97 70.5 167.5t167.5 70.5q99 0 168 -70t69 -168q0 -100 -68.5 -168.5t-168.5 -68.5q-98 0 -168 69t-70 168zM717 98q0 97 70 167.5t169 70.5q97 0 167.5 -70.5t70.5 -167.5q0 -99 -70 -168t-168 -69q-100 0 -169.5 68.5t-69.5 168.5zM1430 98q0 97 69.5 167.5 t167.5 70.5q97 0 167.5 -70.5t70.5 -167.5q0 -99 -70 -168t-168 -69q-99 0 -168 69t-69 168z" />
<glyph unicode="&#x202f;" horiz-adv-x="374" />
<glyph unicode="&#x2039;" d="M135 537l361 362l411 -412l893 891l361 -362l-1252 -1252l-2 3l-4 -3z" />
<glyph unicode="&#x203a;" d="M127 588q0 172 66 326.5t177.5 265.5t266 176t324.5 65v293l530 -397l-530 -402v297q-164 0 -306 -84t-225.5 -228t-83.5 -312q0 -164 83.5 -306t225.5 -225.5t306 -83.5q168 0 311.5 83.5t227 225.5t83.5 306h211q0 -169 -66.5 -323.5t-178 -266t-266 -178t-322.5 -66.5 q-170 0 -324.5 66.5t-266 178t-177.5 266t-66 323.5z" />
<glyph unicode="&#x205f;" horiz-adv-x="468" />
<glyph unicode="&#x20ac;" d="M41 434q0 190 93 351t254 255.5t351 94.5q191 0 352.5 -94.5t255 -255.5t93.5 -351q0 -189 -93.5 -349.5t-255 -254.5t-352.5 -94q-142 0 -271.5 55.5t-223 149.5t-148.5 223t-55 270zM649 424q0 -25 12.5 -47.5t34.5 -32.5l246 -113q29 -17 62 -6t47 41l2 13 q17 32 7 64.5t-42 49.5l-191 88v264q0 36 -22 60t-57 24h-15q-35 0 -59.5 -24.5t-24.5 -59.5v-319v-2zM1012 1257v43q0 26 16.5 43t40.5 17h240v172h110v-172h531v172h114v-172h234q25 0 43 -17t18 -43v-116h-1185q-79 47 -162 73zM1262 1124h1097v-995q0 -23 -18 -40 t-43 -17h-770q42 112 43 114h84v238h-51v10v47h51v234h-94q-2 5 -11 26.5t-14 34.5h119v234h-236v-41q-65 90 -157 155zM1716 186h234v238h-234v-238zM1716 481h234v234h-234v-234zM1716 776h234v234h-234v-234zM2009 186h232v238h-232v-238zM2009 481h232v234h-232v-234z M2009 776h232v234h-232v-234z" />
<glyph unicode="&#x2122;" d="M40 -97q-2 32 5 85.5t23 79.5q9 15 23 28.5t36 27.5t41 24.5t52 25t54 23t61 25t60 24.5l183 76v145q-6 5 -15 15t-28 53.5t-27 99.5q-25 -6 -50.5 26t-25.5 58q0 24 3 47.5t15 46t33 18.5q-18 92 -18 144q6 88 87.5 157.5t201.5 69.5q116 0 194 -69t84 -158 q9 -38 -8 -144q14 3 23.5 -8t12.5 -33t4 -36t1 -35q0 -26 -21.5 -58t-44.5 -26q-7 -56 -24 -98t-30 -56l-13 -14v-145q35 -17 178 -76q22 -9 82.5 -32.5t84.5 -34t63 -30t59.5 -36.5t32.5 -37q24 -47 24 -119v-94h-1415q1 8 -1 40zM1270 784l186 365h-176l238 489l309 -10 l-185 -332h205l-270 -385h184l-446 -546l153 419h-198z" />
<glyph unicode="&#xe000;" horiz-adv-x="1474" d="M0 0v1475h1475v-1475h-1475z" />
</font>
</defs>
</svg>
